<?xml version="1.0" standalone="no"?>
<!DOCTYPE svg PUBLIC "-//W3C//DTD SVG 1.1//EN" "http://www.w3.org/Graphics/SVG/1.1/DTD/svg11.dtd" >
<svg xmlns="http://www.w3.org/2000/svg">
<metadata>Generated by IcoMoon</metadata>
<defs>
<font id="icomoon" horiz-adv-x="1024">
<font-face units-per-em="1024" ascent="960" descent="-64" />
<missing-glyph horiz-adv-x="1024" />
<glyph unicode="&#x20;" horiz-adv-x="512" d="" />
<glyph unicode="&#xe900;" glyph-name="angle-down" d="M727.915 490.667l-193.293-193.293c-5.999-6.003-14.14-9.374-22.626-9.374s-16.627 3.371-22.626 9.374l-193.296 193.293 45.255 45.255 170.667-170.665 170.667 170.665 45.252-45.255z" />
<glyph unicode="&#xe901;" glyph-name="angle-down-filled" d="M530.14 302.771l183.956 183.955c16.128 16.127 4.705 43.702-18.099 43.702h-367.913c-22.808 0-34.229-27.575-18.102-43.702l183.956-183.955c9.997-9.999 26.208-9.999 36.202 0z" />
<glyph unicode="&#xe902;" glyph-name="area" d="M330.102 575.546l27.153-27.153 54.306 54.306-148.236 148.236h113.667v76.8h-206.372c-21.208 0-38.4-17.192-38.4-38.4v-206.372h76.8v113.666l121.083-121.082zM693.907 575.546l-27.149-27.153-54.309 54.306 148.236 148.236h-113.664v76.8h206.368c21.21 0 38.4-17.192 38.4-38.4v-206.372h-76.8v113.666l-121.082-121.082zM357.255 353.648l-143.969-143.971v107.635h-85.333v-210.637c0-23.565 19.102-42.669 42.666-42.669h210.639v85.331h-107.632l143.969 143.968-60.34 60.342zM696.928 323.478l-30.17 30.17-60.343-60.342 143.972-143.968h-107.635v-85.331h210.637c23.565 0 42.669 19.104 42.669 42.669v210.637h-85.331v-107.635l-113.798 113.802z" />
<glyph unicode="&#xe903;" glyph-name="arrow-right" d="M640 679.005l200.836-200.835c16.661-16.661 16.661-43.678 0-60.339l-200.836-200.836-60.339 60.339 128 128h-536.994v85.333h536.994l-128 127.999 60.339 60.34z" />
<glyph unicode="&#xe904;" glyph-name="building" d="M110.181 869.5c36.93 36.93 87.018 57.677 139.245 57.677h210.050c52.228 0 102.317-20.747 139.248-57.677 36.927-36.93 57.675-87.018 57.675-139.245v-695.793h183.796v136.755c-23.501 6.664-45.151 19.243-62.728 36.821-27.085 27.085-42.299 63.815-42.299 102.116v105.023c0 38.302 15.214 75.032 42.299 102.116 27.081 27.081 63.811 42.295 102.112 42.295 38.298 0 75.032-15.214 102.112-42.295 27.081-27.085 42.299-63.815 42.299-102.116v-105.023c0-38.302-15.218-75.032-42.299-102.116-17.581-17.577-39.227-30.157-62.728-36.821v-136.755h65.642c21.748 0 39.385-17.636 39.385-39.385 0-21.752-17.636-39.385-39.385-39.385h-945.233c-21.752 0-39.385 17.632-39.385 39.385 0 21.748 17.633 39.385 39.385 39.385h13.128v695.793c0 52.227 20.747 102.315 57.678 139.245zM131.272 34.462h183.795v170.665c0 21.752 17.633 39.385 39.385 39.385s39.385-17.632 39.385-39.385v-170.665h183.794v695.793c0 31.336-12.446 61.389-34.607 83.547-22.158 22.158-52.208 34.606-83.547 34.606h-210.050c-31.336 0-61.389-12.448-83.547-34.606s-34.606-52.211-34.606-83.547v-695.793zM262.554 625.229c0 21.751 17.633 39.385 39.385 39.385h105.026c21.752 0 39.385-17.633 39.385-39.385s-17.632-39.385-39.385-39.385h-105.026c-21.751 0-39.385 17.633-39.385 39.385zM879.581 480.819c-17.408 0-34.107-6.916-46.415-19.228-12.312-12.308-19.228-29.003-19.228-46.415v-105.023c0-17.412 6.916-34.107 19.228-46.419 12.308-12.308 29.007-19.224 46.415-19.224s34.103 6.916 46.415 19.224c12.312 12.312 19.228 29.007 19.228 46.419v105.023c0 17.412-6.916 34.107-19.228 46.415-12.312 12.312-29.007 19.228-46.415 19.228zM262.554 415.177c0 21.752 17.633 39.385 39.385 39.385h105.026c21.752 0 39.385-17.632 39.385-39.385s-17.632-39.385-39.385-39.385h-105.026c-21.751 0-39.385 17.632-39.385 39.385z" />
<glyph unicode="&#xe905;" glyph-name="complex" d="M296.563 387.437l-101.062 188.563h79.406l52.063-128.188h49.219l-9.187-60.375h-70.438zM326.093 398.156l-54.687-140.659h-79.406l82.468 179.377 51.625-38.719zM416.875 576v-318.502h-63.656v318.502h63.656zM571.969 576l-99.094-188.563h-69.781l-9.187 60.375h48.562l50.75 128.188h78.75zM496.281 257.498l-52.937 140.659 51.625 38.719 80.719-179.377h-79.407zM669.971 576v-318.502h-64.096v318.502h64.096zM825.062 576l-99.091-187.907h-70.656l-8.755 60.594h44.845l56.218 127.313h77.44zM757.907 257.498l-65.19 141.752 43.968 48.125 97.126-189.877h-75.904z" />
<glyph unicode="&#xe906;" glyph-name="cross" d="M753.361 693.646c16.661-16.662 16.661-43.677 0-60.34l-181.022-181.018 181.022-181.022c16.661-16.661 16.661-43.678 0-60.339-16.666-16.661-43.678-16.661-60.343 0l-181.018 181.022-181.019-181.022c-16.663-16.661-43.677-16.661-60.34 0s-16.663 43.678 0 60.339l181.020 181.022-181.020 181.018c-16.663 16.662-16.663 43.677 0 60.34s43.677 16.662 60.34 0l181.019-181.019 181.018 181.019c16.666 16.662 43.678 16.662 60.343 0z" />
<glyph unicode="&#xe907;" glyph-name="envelop" d="M144.41 776.207c-17.409 0-34.105-6.916-46.415-19.226-7.674-7.674-13.252-17.052-16.364-27.245l430.369-286.911 430.368 286.911c-3.111 10.193-8.688 19.571-16.364 27.245-12.308 12.31-29.003 19.226-46.415 19.226h-735.178zM945.231 636.975l-411.384-274.254c-13.229-8.822-30.464-8.822-43.693 0l-411.384 274.254v-451.536c0-17.412 6.916-34.107 19.226-46.415 12.31-12.312 29.006-19.228 46.415-19.228h735.178c17.412 0 34.107 6.916 46.415 19.228 12.312 12.308 19.228 29.003 19.228 46.415v451.536zM42.297 812.679c27.082 27.082 63.814 42.297 102.114 42.297h735.178c38.302 0 75.032-15.214 102.116-42.297 27.081-27.082 42.295-63.813 42.295-102.113v-525.127c0-38.302-15.214-75.032-42.295-102.112-27.085-27.085-63.815-42.299-102.116-42.299h-735.178c-38.3 0-75.032 15.214-102.114 42.299-27.082 27.081-42.297 63.811-42.297 102.112v525.127c0 38.3 15.215 75.031 42.297 102.113z" />
<glyph unicode="&#xe908;" glyph-name="facebook" d="M988.446 446.827c0 261.689-211.857 474.074-472.892 474.074-261.033 0-472.887-212.385-472.887-474.074 0-229.453 162.674-420.501 378.311-464.593v322.372h-94.578v142.221h94.578v118.519c0 91.497 74.246 165.926 165.51 165.926h118.225v-142.222h-94.579c-26.010 0-47.287-21.333-47.287-47.407v-94.815h141.867v-142.221h-141.867v-329.481c238.805 23.701 425.6 225.655 425.6 471.701z" />
<glyph unicode="&#xe909;" glyph-name="filter" d="M138.667 789.333c0 17.673 14.327 32 32 32h682.667c17.673 0 32-14.327 32-32v-92.672c-0.009-31.115-12.373-60.959-34.377-82.958 0-0.001 0.004 0.001 0 0l-178.957-178.96v-285.41c0-13.773-8.815-26.001-21.879-30.357l-256.001-85.333c-9.758-3.255-20.486-1.617-28.83 4.399-8.345 6.012-13.289 15.671-13.289 25.958v350.293l-182.825 201.109c-19.627 21.594-30.505 49.728-30.508 78.909v95.022zM202.667 757.333v-63.015c0-0.001 0 0.001 0 0 0.002-13.262 4.945-26.051 13.865-35.865 0.001 0 0 0.001 0 0l191.147-210.261c5.355-5.888 8.322-13.564 8.322-21.525v-318.268l192 64v275.601c0 8.486 3.371 16.627 9.374 22.626l188.331 188.332c10.001 9.998 15.625 23.562 15.629 37.703 0 0.002 0-0.002 0 0v60.672h-618.667z" />
<glyph unicode="&#xe90a;" glyph-name="instagram" d="M562.241 936.727c54.979-0.147 82.883-0.44 106.975-1.124l9.481-0.342c10.947-0.391 21.751-0.88 34.797-1.466 51.996-2.444 87.478-10.654 118.607-22.725 32.256-12.413 59.429-29.225 86.598-56.349 24.851-24.431 44.079-53.983 56.348-86.601 12.069-31.131 20.28-66.612 22.723-118.66 0.586-13 1.075-23.8 1.466-34.796l0.293-9.481c0.735-24.045 1.029-51.951 1.126-106.931l0.047-36.46v-64.019c0.121-35.649-0.251-71.294-1.122-106.934l-0.293-9.481c-0.391-10.994-0.88-21.797-1.466-34.797-2.444-52.047-10.752-87.478-22.775-118.658-12.232-32.633-31.465-62.194-56.348-86.602-24.436-24.841-53.983-44.069-86.598-56.348-31.13-12.069-66.611-20.28-118.607-22.723-11.594-0.545-23.194-1.033-34.797-1.466l-9.481-0.293c-24.092-0.684-51.996-1.029-106.975-1.126l-100.428-0.047c-35.662-0.126-71.325 0.251-106.977 1.122l-9.481 0.293c-11.601 0.442-23.2 0.945-34.796 1.517-51.998 2.444-87.478 10.654-118.657 22.723-32.613 12.251-62.152 31.483-86.549 56.348-24.873 24.422-44.119 53.979-56.396 86.602-12.071 31.13-20.281 66.611-22.725 118.658-0.544 11.599-1.033 23.198-1.466 34.797l-0.244 9.481c-0.901 35.635-1.308 71.284-1.222 106.934v100.479c-0.136 35.647 0.222 71.294 1.075 106.931l0.342 9.481c0.391 10.996 0.88 21.797 1.466 34.796 2.443 52.049 10.654 87.48 22.725 118.66 12.272 32.651 31.556 62.213 56.494 86.601 24.391 24.852 53.911 44.083 86.5 56.349 31.179 12.071 66.61 20.282 118.657 22.725 13 0.586 23.848 1.075 34.796 1.466l9.481 0.293c35.636 0.868 71.282 1.243 106.928 1.124l100.477 0.049zM512.005 692.369c-64.808 0-126.959-25.745-172.784-71.571s-71.569-107.979-71.569-172.789c0-64.805 25.744-126.957 71.569-172.786 45.824-45.824 107.976-71.568 172.784-71.568 64.805 0 126.957 25.744 172.781 71.568 45.824 45.829 71.568 107.981 71.568 172.786 0 64.81-25.744 126.963-71.568 172.789s-107.976 71.571-172.781 71.571zM512.005 594.626c19.251 0.003 38.316-3.786 56.106-11.151s33.955-18.162 47.569-31.774c13.615-13.612 24.418-29.773 31.791-47.56 7.368-17.787 11.166-36.852 11.166-56.104 0.005-19.256-3.784-38.321-11.148-56.111-7.368-17.79-18.162-33.955-31.777-47.569-13.61-13.619-29.77-24.418-47.555-31.791-17.79-7.373-36.85-11.166-56.106-11.171-38.884 0-76.174 15.448-103.668 42.943s-42.941 64.787-42.941 103.671c0 38.889 15.447 76.179 42.941 103.674s64.784 42.942 103.668 42.942zM768.619 765.677c-16.198 0-31.739-6.436-43.194-17.893s-17.892-26.995-17.892-43.197c0-16.202 6.437-31.74 17.892-43.197s26.996-17.893 43.194-17.893c16.202 0 31.739 6.436 43.199 17.893 11.455 11.457 17.892 26.995 17.892 43.197s-6.437 31.74-17.892 43.197c-11.459 11.457-26.996 17.893-43.199 17.893z" />
<glyph unicode="&#xe90b;" glyph-name="list" d="M256 746.667c-11.316 0-22.168-4.495-30.17-12.497s-12.497-18.854-12.497-30.17v-85.333c0-11.316 4.495-22.168 12.497-30.17s18.854-12.497 30.17-12.497h512c11.315 0 22.17 4.495 30.17 12.497s12.497 18.854 12.497 30.17v85.333c0 11.316-4.497 22.168-12.497 30.17s-18.854 12.497-30.17 12.497h-512zM165.49 794.51c24.005 24.005 56.562 37.49 90.51 37.49h512c33.946 0 66.505-13.486 90.509-37.49s37.491-56.562 37.491-90.51v-85.333c0-33.948-13.487-66.505-37.491-90.509s-56.559-37.491-90.509-37.491h-512c-33.948 0-66.505 13.487-90.51 37.491s-37.49 56.561-37.49 90.509v85.333c0 33.948 13.486 66.505 37.49 90.51zM256 320c-11.316 0-22.168-4.497-30.17-12.497s-12.497-18.854-12.497-30.17v-85.333c0-11.315 4.495-22.17 12.497-30.17s18.854-12.497 30.17-12.497h512c11.315 0 22.17 4.497 30.17 12.497s12.497 18.854 12.497 30.17v85.333c0 11.315-4.497 22.17-12.497 30.17s-18.854 12.497-30.17 12.497h-512zM165.49 367.842c24.005 24.004 56.562 37.491 90.51 37.491h512c33.95 0 66.505-13.487 90.509-37.491s37.491-56.559 37.491-90.509v-85.333c0-33.95-13.487-66.505-37.491-90.509s-56.559-37.491-90.509-37.491h-512c-33.948 0-66.505 13.487-90.51 37.491s-37.49 56.563-37.49 90.509v85.333c0 33.946 13.486 66.505 37.49 90.509z" />
<glyph unicode="&#xe90c;" glyph-name="man" d="M494.323 849.675c16.003 16.003 37.706 24.993 60.342 24.993 22.63 0 44.334-8.99 60.339-24.993 16-16.003 24.991-37.708 24.991-60.34s-8.991-44.337-24.991-60.34c-16.005-16.003-37.709-24.994-60.339-24.994-22.636 0-44.339 8.991-60.342 24.994s-24.994 37.708-24.994 60.34c0 22.632 8.991 44.337 24.994 60.34zM501.648 660.062c14.54 3.635 29.921-0.626 40.519-11.223l120.878-120.878 118.441-39.481c22.359-7.452 34.437-31.614 26.988-53.97-7.45-22.354-31.616-34.437-53.97-26.982l-128 42.665c-6.282 2.095-11.996 5.624-16.676 10.308l-69.376 69.374-25.426-152.56 112.471-112.476c3.246-3.241 5.944-6.984 7.992-11.085l85.335-170.67c10.537-21.074 1.997-46.705-19.082-57.242-21.074-10.537-46.705-1.997-57.242 19.082l-82.237 164.47-123.103 123.105c-9.743 9.743-14.182 23.593-11.916 37.187l31.968 191.809-91.531-22.883-76.184-114.275c-13.071-19.604-39.561-24.904-59.168-11.832s-24.905 39.56-11.834 59.166l85.334 128c5.887 8.831 14.855 15.151 25.153 17.725l170.666 42.667zM452.263 268.8c18.851-14.136 22.672-40.878 8.534-59.73l-128-170.67c-14.139-18.847-40.882-22.671-59.734-8.53-18.851 14.136-22.672 40.883-8.534 59.73l128 170.67c14.138 18.852 40.882 22.671 59.734 8.53z" />
<glyph unicode="&#xe90d;" glyph-name="map" d="M918.43 825.628c12.578-7.774 20.237-21.507 20.237-36.294v-554.667c0-16.162-9.131-30.933-23.586-38.161l-256-128c-12.011-6.007-26.15-6.007-38.161 0l-236.919 118.46-236.919-118.46c-13.226-6.613-28.933-5.909-41.512 1.865-12.579 7.778-20.236 21.508-20.236 36.297v554.667c0 16.161 9.131 30.935 23.586 38.162l256 128c12.012 6.006 26.15 6.006 38.162 0l236.919-118.46 236.919 118.46c13.227 6.613 28.932 5.906 41.51-1.868zM597.333 634.964l-170.667 85.333v-459.262l170.667-85.333v459.263zM682.667 175.701l170.667 85.333v459.262l-170.667-85.333v-459.263zM341.333 261.035v459.262l-170.667-85.333v-459.262l170.667 85.333z" />
<glyph unicode="&#xe90e;" glyph-name="phone-empty" d="M150.197 864.425c-18.106 0-35.469-7.193-48.272-19.995-12.54-12.54-19.698-29.456-19.986-47.159 12.643-202.537 98.802-393.508 242.319-537.024s334.489-229.675 537.024-242.319c17.703 0.287 34.619 7.447 47.161 19.984 12.8 12.804 19.993 30.167 19.993 48.271v190.722l-214.929 85.975-63.975-106.623c-10.965-18.28-34.12-25.092-53.24-15.663-126.681 62.476-229.207 165.007-291.684 291.684-9.429 19.12-2.618 42.274 15.661 53.242l106.62 63.973-85.971 214.931h-190.722zM43.999 902.356c28.165 28.166 66.366 43.989 106.198 43.989h218.453c16.749 0 31.81-10.197 38.031-25.748l109.227-273.067c7.467-18.666 0.283-39.992-16.957-50.335l-103.098-61.861c48.932-84.398 119.097-154.563 203.495-203.493l61.858 103.096c10.346 17.24 31.67 24.424 50.336 16.957l273.068-109.228c15.553-6.218 25.747-21.279 25.747-38.027v-218.456c0-39.83-15.823-78.033-43.987-106.197-28.168-28.164-66.367-43.987-106.201-43.987-0.827 0-1.655 0.025-2.482 0.074-223.019 13.554-433.365 108.257-591.354 266.248-157.988 157.987-252.693 368.334-266.246 591.352-0.050 0.827-0.075 1.656-0.075 2.485 0 39.832 15.823 78.032 43.989 106.198z" />
<glyph unicode="&#xe90f;" glyph-name="phone-filled" d="M729.865 343.232l-144.631-28.028c-97.698 49.037-158.046 105.361-193.165 193.165l27.041 145.051-51.116 135.913h-131.735c-39.6 0-70.784-32.725-64.87-71.881 14.765-97.752 58.3-274.987 185.559-402.249 133.642-133.641 326.12-191.633 432.053-214.682 40.909-8.905 77.197 23.010 77.197 64.875v125.884l-136.333 51.951z" />
<glyph unicode="&#xe910;" glyph-name="plus" d="M512 789.333c23.565 0 42.667-19.103 42.667-42.667v-256h256c23.565 0 42.667-19.102 42.667-42.667s-19.102-42.667-42.667-42.667h-256v-256c0-23.565-19.102-42.667-42.667-42.667s-42.667 19.102-42.667 42.667v256h-256c-23.564 0-42.667 19.102-42.667 42.667s19.103 42.667 42.667 42.667h256v256c0 23.564 19.102 42.667 42.667 42.667z" />
<glyph unicode="&#xe911;" glyph-name="room" d="M341.327 793.599h341.335c12.448 0 24.384-4.945 33.184-13.747s13.747-20.74 13.747-33.187v-644.265h-435.2v644.265c0 12.447 4.945 24.385 13.747 33.187s20.739 13.747 33.187 13.747zM806.394 102.4v644.265c0 32.816-13.037 64.288-36.243 87.493-23.2 23.204-54.675 36.241-87.488 36.241h-341.335c-32.817 0-64.289-13.036-87.493-36.241s-36.241-54.677-36.241-87.493v-644.265h-128v-76.8h844.8v76.8h-128zM635.727 486.399v-77.227h-76.8v77.227h76.8z" />
<glyph unicode="&#xe912;" glyph-name="search" d="M296.044 848.684c41.413 17.153 85.798 25.982 130.623 25.982 44.826 0 89.212-8.829 130.624-25.982s79.040-42.296 110.737-73.992c31.693-31.695 56.836-69.324 73.988-110.736 17.156-41.413 25.984-85.798 25.984-130.623 0-44.826-8.828-89.212-25.984-130.624-11.682-28.207-27.072-54.656-45.713-78.673l229.867-229.867c16.661-16.661 16.661-43.678 0-60.339s-43.678-16.661-60.339 0l-229.867 229.867c-24.017-18.641-50.466-34.031-78.673-45.713-41.412-17.156-85.798-25.984-130.624-25.984-44.824 0-89.21 8.828-130.623 25.984-41.412 17.152-79.041 42.295-110.736 73.988-31.696 31.697-56.838 69.325-73.992 110.737s-25.982 85.798-25.982 130.624c0 44.825 8.829 89.21 25.982 130.623s42.296 79.041 73.992 110.736c31.695 31.696 69.324 56.838 110.736 73.992zM426.667 789.333c-33.618 0-66.908-6.621-97.967-19.487s-59.281-31.722-83.052-55.494c-23.772-23.772-42.629-51.993-55.494-83.052s-19.487-64.349-19.487-97.967c0-33.617 6.621-66.906 19.487-97.967s31.722-59.281 55.494-83.051c23.772-23.774 51.993-42.628 83.052-55.497 31.059-12.864 64.349-19.486 97.967-19.486s66.906 6.622 97.967 19.486c31.061 12.868 59.281 31.723 83.051 55.497 23.774 23.77 42.628 51.989 55.497 83.051 12.864 31.061 19.486 64.35 19.486 97.967 0 33.618-6.622 66.908-19.486 97.967-12.868 31.059-31.723 59.281-55.497 83.052-23.77 23.772-51.989 42.629-83.051 55.494s-64.35 19.487-97.967 19.487z" />
<glyph unicode="&#xe913;" glyph-name="steps" d="M686.97 746.662c0 21.208 17.19 38.4 38.4 38.4h251.731v-76.8h-213.331v-174.933c0-21.208-17.19-38.4-38.4-38.4h-174.934v-174.936c0-21.203-17.192-38.4-38.4-38.4h-174.933v-174.931c0-21.21-17.192-38.4-38.4-38.4h-251.733v76.8h213.333v174.931c0 21.21 17.192 38.402 38.4 38.402h174.933v174.934c0 21.208 17.192 38.4 38.4 38.4h174.934v174.933z" />
<glyph unicode="&#xe914;" glyph-name="tiktok" d="M774.857 789.811c-39.061 43.162-60.587 98.592-60.57 155.97h-176.572v-685.826c-1.361-37.116-17.553-72.269-45.158-98.061s-64.474-40.205-102.842-40.213c-81.143 0-148.571 64.158-148.571 143.804 0 95.13 94.857 166.481 192.571 137.165v174.776c-197.143 25.442-369.714-122.787-369.714-311.941 0-184.179 157.714-315.26 325.143-315.26 179.429 0 325.144 141.039 325.144 315.26v347.892c71.599-49.769 157.564-76.472 245.713-76.326v170.903c0 0-107.43-4.977-185.143 81.857z" />
<glyph unicode="&#xe915;" glyph-name="winky" d="M348.722 842.189c51.765 21.442 107.248 32.478 163.278 32.478s111.514-11.036 163.277-32.478c51.767-21.442 98.803-52.87 138.423-92.49s71.044-86.655 92.489-138.421c21.44-51.765 32.478-107.248 32.478-163.278s-11.038-111.514-32.478-163.277c-21.444-51.767-52.868-98.803-92.489-138.423s-86.656-71.044-138.423-92.489c-51.763-21.44-107.247-32.478-163.277-32.478s-111.513 11.038-163.278 32.478c-51.766 21.444-98.801 52.868-138.421 92.489s-71.048 86.656-92.49 138.423c-21.442 51.763-32.478 107.247-32.478 163.277s11.036 111.513 32.478 163.278c21.442 51.766 52.87 98.801 92.49 138.421s86.655 71.048 138.421 92.49zM512 789.333c-44.826 0-89.21-8.829-130.623-25.982s-79.041-42.296-110.736-73.992c-31.696-31.695-56.838-69.324-73.992-110.736s-25.982-85.797-25.982-130.623c0-44.826 8.829-89.212 25.982-130.624s42.296-79.040 73.992-110.737c31.695-31.693 69.324-56.836 110.736-73.988 41.413-17.156 85.797-25.984 130.623-25.984s89.212 8.828 130.624 25.984c41.412 17.152 79.040 42.295 110.737 73.988 31.693 31.697 56.836 69.325 73.988 110.737 17.156 41.412 25.984 85.798 25.984 130.624s-8.828 89.21-25.984 130.623c-17.152 41.412-42.295 79.040-73.988 110.736-31.697 31.696-69.325 56.838-110.737 73.992s-85.798 25.982-130.624 25.982zM332.497 627.503c16.663 16.662 43.677 16.662 60.34 0l64-64c16.661-16.663 16.661-43.678 0-60.34l-64-64c-16.663-16.661-43.677-16.661-60.34 0s-16.662 43.678 0 60.339l33.83 33.83-33.83 33.83c-16.662 16.663-16.662 43.677 0 60.34zM640.427 490.667h-0.427c-23.565 0-42.667 19.102-42.667 42.667s19.102 42.667 42.667 42.667h0.427c23.565 0 42.667-19.103 42.667-42.667s-19.102-42.667-42.667-42.667zM375.473 350.477c16.831 16.491 43.845 16.213 60.337-0.614 9.933-10.138 21.786-18.193 34.867-23.689s27.132-8.329 41.323-8.329c14.191 0 28.241 2.833 41.323 8.329s24.934 13.551 34.867 23.689c16.491 16.828 43.507 17.105 60.339 0.614 16.828-16.491 17.105-43.507 0.614-60.339-17.877-18.244-39.215-32.738-62.763-42.633-23.552-9.894-48.836-14.993-74.381-14.993s-50.829 5.099-74.381 14.993c-23.547 9.894-44.885 24.388-62.762 42.633-16.491 16.832-16.215 43.849 0.616 60.339z" />
<glyph unicode="&#xe916;" glyph-name="youtube" d="M511.996 789.344c36.48 0 73.9-0.939 110.168-2.475l42.836-2.048 41.004-2.432 38.4-2.603 35.068-2.73c38.064-2.913 73.878-19.155 101.146-45.868s44.24-62.187 47.934-100.18l1.708-18.133 3.2-38.828c2.984-40.232 5.204-84.096 5.204-126.036s-2.22-85.804-5.204-126.036l-3.2-38.828c-0.556-6.232-1.112-12.244-1.708-18.132-3.697-38.001-20.674-73.479-47.952-100.195-27.275-26.715-63.1-42.953-101.168-45.853l-34.988-2.688-38.4-2.648-41.044-2.432-42.836-2.048c-36.703-1.595-73.432-2.421-110.168-2.472-36.736 0.051-73.465 0.878-110.164 2.472l-42.838 2.048-41.002 2.432-38.4 2.648-35.072 2.688c-38.061 2.911-73.875 19.152-101.143 45.868-27.267 26.712-44.241 62.186-47.935 100.18l-1.706 18.132-3.2 38.828c-3.263 41.933-4.999 83.975-5.206 126.036 0 41.94 2.219 85.804 5.206 126.036l3.2 38.828c0.554 6.229 1.109 12.245 1.706 18.133 3.693 37.986 20.66 73.454 47.919 100.167s63.063 42.959 101.116 45.881l35.029 2.73 38.4 2.603 41.045 2.432 42.837 2.048c36.714 1.595 73.461 2.42 110.208 2.475zM426.664 551.479v-206.936c0-19.712 21.332-32 38.4-22.184l179.2 103.464c3.899 2.245 7.139 5.478 9.392 9.373 2.249 3.895 3.438 8.316 3.438 12.815s-1.189 8.92-3.438 12.815c-2.253 3.895-5.493 7.128-9.392 9.373l-179.2 103.424c-3.895 2.245-8.309 3.43-12.804 3.427-4.495 0-8.912-1.185-12.804-3.434s-7.124-5.482-9.37-9.377c-2.245-3.891-3.427-8.309-3.423-12.804v0.044z" />
<glyph unicode="&#xe917;" glyph-name="burger" d="M130.664 704c0 22.092 17.909 40 40 40h682.667c22.090 0 40-17.908 40-40s-17.91-40-40-40h-682.667c-22.091 0-40 17.908-40 40zM130.664 448c0 22.093 17.909 40 40 40h682.667c22.090 0 40-17.907 40-40s-17.91-40-40-40h-682.667c-22.091 0-40 17.907-40 40zM130.664 192c0 22.093 17.909 40 40 40h682.667c22.090 0 40-17.907 40-40s-17.91-40-40-40h-682.667c-22.091 0-40 17.907-40 40z" />
<glyph unicode="&#xe918;" glyph-name="angle-left" d="M729.446 837.616l-383.062-384.125 383.062-384.125-90.637-90.384-428.127 429.315c-24.91 24.979-24.91 65.405 0 90.384l428.127 429.318 90.637-90.384z" />
<glyph unicode="&#xe919;" glyph-name="angle-right" d="M256.007 837.616l383.061-384.125-383.061-384.125 90.636-90.384 428.128 429.315c24.909 24.979 24.909 65.405 0 90.384l-428.128 429.318-90.636-90.384z" />
<glyph unicode="&#xe91a;" glyph-name="share" d="M735.97 320c-23.953-0.124-47.573-5.619-69.12-16.085-21.542-10.47-40.461-25.638-55.36-44.395l-233.921 146.24c8.526 27.511 8.526 56.964 0 84.48l233.921 146.239c23.74-29.399 57.122-49.446 94.229-56.589s75.546-0.922 108.506 17.561c32.96 18.484 58.317 48.036 71.573 83.423s13.559 74.324 0.858 109.914c-12.702 35.59-37.594 65.535-70.259 84.532s-71.002 25.817-108.22 19.254c-37.214-6.563-70.903-26.086-95.1-55.11-24.201-29.024-37.346-65.677-37.107-103.465 0.154-14.31 2.308-28.527 6.4-42.24l-233.921-146.24c-20.651 25.997-48.879 44.926-80.769 54.163s-65.865 8.324-97.214-2.612c-31.348-10.936-58.519-31.353-77.745-58.422s-29.554-59.449-29.554-92.648c0-33.203 10.329-65.583 29.554-92.651s46.396-47.488 77.745-58.423c31.349-10.935 65.324-11.849 97.214-2.611s60.118 28.169 80.769 54.165l233.921-146.24c-4.092-13.713-6.246-27.934-6.4-42.24 0-31.646 9.382-62.579 26.965-88.892 17.579-26.313 42.569-46.822 71.804-58.931s61.406-15.279 92.446-9.105c31.036 6.174 59.546 21.414 81.92 43.789 22.379 22.379 37.615 50.889 43.789 81.924s3.008 63.206-9.105 92.442c-12.109 29.239-32.614 54.225-58.927 71.808-26.313 17.579-57.246 26.965-88.892 26.965zM735.97 831.999c18.987 0 37.547-5.63 53.333-16.179s28.092-25.542 35.358-43.084c7.266-17.542 9.169-36.844 5.466-55.466-3.708-18.622-12.851-35.728-26.274-49.154-13.427-13.426-30.532-22.569-49.156-26.273-18.62-3.704-37.922-1.803-55.467 5.463-17.54 7.266-32.533 19.571-43.081 35.358-10.551 15.787-16.179 34.348-16.179 53.335 0 25.461 10.112 49.879 28.117 67.882s42.419 28.118 67.883 28.118zM223.969 352c-18.987 0-37.548 5.628-53.335 16.179-15.787 10.547-28.092 25.54-35.358 43.081-7.266 17.545-9.167 36.847-5.463 55.467 3.704 18.624 12.847 35.729 26.273 49.156 13.426 13.423 30.531 22.567 49.154 26.272s37.925 1.803 55.466-5.463c17.542-7.266 32.535-19.571 43.084-35.358s16.179-34.347 16.179-53.333c0-25.463-10.114-49.882-28.118-67.883-18.003-18.005-42.421-28.117-67.882-28.117zM735.97 64c-18.987 0-37.547 5.628-53.333 16.179-15.791 10.547-28.092 25.54-35.358 43.081-7.266 17.545-9.169 36.847-5.466 55.467 3.703 18.624 12.847 35.729 26.274 49.156 13.427 13.423 30.532 22.566 49.152 26.27 18.624 3.708 37.926 1.805 55.467-5.461 17.545-7.266 32.538-19.571 43.085-35.358s16.179-34.347 16.179-53.333c0-25.463-10.116-49.882-28.117-67.883-18.005-18.005-42.423-28.117-67.883-28.117z" />
</font>
</defs>
</svg>
